<?xml version="1.0" standalone="no"?>
<!DOCTYPE svg PUBLIC "-//W3C//DTD SVG 1.1//EN" "http://www.w3.org/Graphics/SVG/1.1/DTD/svg11.dtd">
<svg xmlns="http://www.w3.org/2000/svg">
<defs >
<font id="NotoSans" horiz-adv-x="616" ><font-face
    font-family="Noto Sans"
    units-per-em="1000"
    panose-1="2 11 8 2 4 5 4 2 2 4"
    ascent="1069"
    descent="-293"
    alphabetic="0" />
<glyph unicode=" " glyph-name="space" horiz-adv-x="260" />
<glyph unicode="!" glyph-name="exclam" horiz-adv-x="286" d="M203 237H84L59 714H228L203 237ZM57 70Q57 116 82 134T143 153Q178 153 203 135T228 70Q228 26 203 7T143 -13Q107 -13 82 6T57 70Z" />
<glyph unicode="&quot;" glyph-name="quotedbl" horiz-adv-x="472" d="M201 714L181 456H85L65 714H201ZM407 714L387 456H291L271 714H407Z" />
<glyph unicode="#" glyph-name="numbersign" horiz-adv-x="646" d="M488 412L465 299H591V198H446L408 0H301L339 198H244L207 0H102L138 198H22V299H157L180 412H57V514H198L236 713H343L305 514H402L440 713H545L507 514H624V412H488ZM263 299H359L382 412H286L263
299Z" />
<glyph unicode="$" glyph-name="dollar" horiz-adv-x="572" d="M253 40Q188 42 137 52T44 82V211Q85 191 143 175T253 155V306Q176 336 130 364T63 428T43 512Q43 587 101 631T253 684V759H320V686Q431 682 522 641L476 527Q436 544 396 553T320 565V421Q374 401
423 378T502 318T533 223Q533 150 480 101T320 42V-58H253V40ZM253 563Q190 554 190 512Q190 491 205 477T253 448V563ZM320 158Q386 170 386 216Q386 236 370 250T320 280V158Z" />
<glyph unicode="%" glyph-name="percent" horiz-adv-x="901" d="M199 724Q283 724 326 666T370 501Q370 395 329 336T199 276Q117 276 74 335T31 501Q31 607 71 665T199 724ZM706 714L310 0H193L589 714H706ZM200 622Q154 622 154 500Q154 377 200 377Q247 377
247 500Q247 622 200 622ZM699 439Q783 439 826 381T870 216Q870 110 829 51T699 -9Q617 -9 574 50T531 216Q531 322 571 380T699 439ZM700 337Q654 337 654 215Q654 92 700 92Q747 92 747 215Q747 337 700 337Z" />
<glyph unicode="&amp;" glyph-name="ampersand" horiz-adv-x="750" d="M310 724Q368 724 413 706T484 654T510 569Q510 500 469 453T367 371L506 236Q526 270 541 307T566 383H721Q706 327 677 263T603 143L750 0H566L510 55Q467 25 414 8T299 -10Q177 -10 109
46T40 193Q40 269 75 314T171 395Q132 440 117 478T101 559Q101 610 127 647T201 704T310 724ZM309 609Q284 609 262 597T239 549Q239 524 251 501T285 454Q327 477 349 500T372 553Q372 583 352 596T309 609ZM258 306Q230 285 214 262T197 207Q197 164 229 140T309
115Q341 115 369 123T420 145L258 306Z" />
<glyph unicode="&apos;" glyph-name="quotesingle" horiz-adv-x="266" d="M201 714L181 456H85L65 714H201Z" />
<glyph unicode="(" glyph-name="parenleft" horiz-adv-x="339" d="M40 274Q40 396 75 509T187 714H309Q241 620 206 507T170 275Q170 159 205 47T308 -158H187Q111 -70 76 41T40 274Z" />
<glyph unicode=")" glyph-name="parenright" horiz-adv-x="339" d="M299 274Q299 153 264 42T152 -158H31Q99 -66 134 46T169 275Q169 394 134 507T30 714H152Q228 623 263 510T299 274Z" />
<glyph unicode="*" glyph-name="asterisk" horiz-adv-x="545" d="M336 760L316 580L498 631L514 508L348 496L457 351L346 292L270 445L203 293L88 351L196 496L31 509L50 631L228 580L208 760H336Z" />
<glyph unicode="+" glyph-name="plus" horiz-adv-x="572" d="M339 406H528V299H339V111H232V299H43V406H232V596H339V406Z" />
<glyph unicode="," glyph-name="comma" horiz-adv-x="285" d="M224 105Q211 52 187 -11T138 -129H31Q45 -70 59 -3T80 116H217L224 105Z" />
<glyph unicode="-" glyph-name="hyphen" horiz-adv-x="322" d="M30 207V329H292V207H30Z" />
<glyph unicode="." glyph-name="period" horiz-adv-x="285" d="M57 70Q57 116 82 134T143 153Q178 153 203 135T228 70Q228 26 203 7T143 -13Q107 -13 82 6T57 70Z" />
<glyph unicode="/" glyph-name="slash" horiz-adv-x="413" d="M408 714L142 0H7L273 714H408Z" />
<glyph unicode="0" glyph-name="zero" horiz-adv-x="572" d="M535 357Q535 242 511 160T432 34T285 -10Q156 -10 96 87T36 357Q36 473 60 555T139 681T285 725Q413 725 474 628T535 357ZM186 357Q186 235 207 174T285 112Q341 112 363 173T385 357Q385 479 363
541T285 603Q228 603 207 541T186 357Z" />
<glyph unicode="1" glyph-name="one" horiz-adv-x="572" d="M413 0H262V413Q262 439 263 481T266 555Q261 549 245 534T214 506L132 440L59 531L289 714H413V0Z" />
<glyph unicode="2" glyph-name="two" horiz-adv-x="572" d="M539 0H40V105L219 286Q273 342 306 379T354 447T369 513Q369 556 346 577T282 598Q241 598 202 579T120 525L38 622Q69 649 103 672T183 709T293 724Q363 724 413 699T491 630T519 531Q519 472 496
423T428 326T320 220L228 134V127H539V0Z" />
<glyph unicode="3" glyph-name="three" horiz-adv-x="572" d="M511 554Q511 480 467 436T357 376V373Q443 363 487 321T532 208Q532 146 502 97T408 19T244 -10Q128 -10 38 29V157Q84 134 134 122T228 110Q309 110 341 138T374 217Q374 247 359 267T307 298T202
309H148V425H203Q269 425 303 437T350 471T363 521Q363 559 340 580T261 602Q210 602 173 585T109 550L39 654Q81 684 137 704T272 724Q382 724 446 680T511 554Z" />
<glyph unicode="4" glyph-name="four" horiz-adv-x="572" d="M555 148H469V0H322V148H17V253L330 714H469V265H555V148ZM322 386Q322 409 323 442T325 503T328 541H324Q315 521 305 502T281 463L150 265H322V386Z" />
<glyph unicode="5" glyph-name="five" horiz-adv-x="572" d="M300 456Q365 456 416 431T496 358T526 239Q526 123 454 57T241 -10Q185 -10 136 0T49 29V159Q86 140 138 127T236 113Q303 113 338 140T374 226Q374 334 231 334Q203 334 173 329T123 318L63 350L90
714H477V586H222L209 446Q226 449 245 452T300 456Z" />
<glyph unicode="6" glyph-name="six" horiz-adv-x="572" d="M35 303Q35 365 44 425T75 538T138 633T241 698T393 722Q414 722 442 721T489 715V594Q470 599 448 601T403 604Q314 604 266 576T197 498T174 381H180Q200 416 237 440T335 464Q429 464 484 405T539
238Q539 122 474 56T296 -10Q223 -10 164 23T70 126T35 303ZM293 111Q337 111 365 141T393 236Q393 288 369 318T296 348Q263 348 238 334T199 296T185 249Q185 216 197 185T233 132T293 111Z" />
<glyph unicode="7" glyph-name="seven" horiz-adv-x="572" d="M111 0L379 587H27V714H539V619L269 0H111Z" />
<glyph unicode="8" glyph-name="eight" horiz-adv-x="572" d="M286 723Q348 723 399 704T482 647T514 551Q514 487 478 446T386 377Q424 357 458 331T514 269T536 185Q536 126 505 82T417 14T286 -10Q166 -10 101 41T35 181Q35 255 75 300T172 373Q124 403 91
445T57 552Q57 609 89 647T173 704T286 723ZM285 613Q248 613 224 594T199 540Q199 503 225 480T286 440Q320 456 346 478T372 540Q372 575 348 594T285 613ZM175 190Q175 151 202 126T284 101Q340 101 368 125T396 189Q396 216 380 236T341 273T292 304L279 311Q233
289 204 260T175 190Z" />
<glyph unicode="9" glyph-name="nine" horiz-adv-x="572" d="M536 409Q536 348 527 288T496 174T433 79T330 14T178 -10Q157 -10 129 -9T82 -3V118Q102 114 124 111T168 108Q257 108 305 136T374 215T397 331H391Q370 296 336 272T233 248Q142 248 87 307T32 474Q32
590 97 656T275 722Q348 722 407 689T501 586T536 409ZM278 601Q234 601 206 571T178 476Q178 424 202 394T275 364Q309 364 333 379T372 416T386 463Q386 496 374 528T338 580T278 601Z" />
<glyph unicode=":" glyph-name="colon" horiz-adv-x="285" d="M57 473Q57 519 82 537T143 556Q178 556 203 538T228 473Q228 429 203 410T143 390Q107 390 82 409T57 473ZM57 70Q57 116 82 134T143 153Q178 153 203 135T228 70Q228 26 203 7T143 -13Q107 -13 82 6T57 70Z" />
<glyph unicode=";" glyph-name="semicolon" horiz-adv-x="285" d="M57 473Q57 519 82 537T143 556Q178 556 203 538T228 473Q228 429 203 410T143 390Q107 390 82 409T57 473ZM224 105Q211 52 187 -11T138 -129H31Q45 -70 59 -3T80 116H217L224 105Z" />
<glyph unicode="&lt;" glyph-name="less" horiz-adv-x="572" d="M528 99L43 313V383L528 625V508L194 353L528 216V99Z" />
<glyph unicode="=" glyph-name="equal" horiz-adv-x="572" d="M43 394V500H528V394H43ZM43 204V311H528V204H43Z" />
<glyph unicode="&gt;" glyph-name="greater" horiz-adv-x="572" d="M43 216L377 353L43 508V625L528 383V313L43 99V216Z" />
<glyph unicode="?" glyph-name="question" horiz-adv-x="477" d="M135 273Q135 323 156 357T228 428Q273 460 292 483T312 539Q312 571 289 587T223 604Q181 604 140 591T56 556L3 663Q52 690 109 707T234 724Q338 724 395 674T453 547Q453 506 440 476T401 421T336
366Q307 345 291 330T270 301T264 266V237H135V273ZM119 70Q119 116 144 134T205 153Q240 153 265 135T290 70Q290 26 265 7T205 -13Q169 -13 144 6T119 70Z" />
<glyph unicode="@" glyph-name="at" horiz-adv-x="897" d="M847 358Q847 312 836 267T803 185T746 127T666 105Q629 105 601 122T562 168H554Q534 143 501 124T420 105Q331 105 283 158T234 299Q234 366 263 417T345 498T470 528Q517 528 567 520T646 501L636
296Q635 286 635 276T635 262Q635 221 646 208T672 194Q695 194 710 216T732 276T740 359Q740 443 706 501T614 591T480 622Q375 622 304 579T195 460T158 288Q158 153 230 81T439 9Q497 9 560 22T675 54V-40Q627 -60 568 -72T443 -84Q319 -84 231 -40T97 86T50
285Q50 376 80 454T166 590T302 681T479 714Q586 714 669 671T799 548T847 358ZM347 297Q347 242 370 218T431 194Q481 194 501 230T526 326L532 434Q521 436 507 437T476 439Q429 439 401 419T360 366T347 297Z" />
<glyph unicode="A" glyph-name="A" horiz-adv-x="690" d="M527 0L475 170H215L163 0H0L252 717H437L690 0H527ZM387 463Q382 480 374 506T358 559T345 606Q340 586 332 557T316 501T304 463L253 297H439L387 463Z" />
<glyph unicode="B" glyph-name="B" horiz-adv-x="672" d="M312 714Q455 714 528 674T601 533Q601 472 573 430T491 379V374Q527 367 556 349T602 297T619 207Q619 110 549 55T357 0H90V714H312ZM329 431Q395 431 420 452T446 513Q446 554 416 572T321 590H241V431H329ZM241
311V125H340Q408 125 435 151T462 222Q462 262 435 286T335 311H241Z" />
<glyph unicode="C" glyph-name="C" horiz-adv-x="637" d="M393 598Q306 598 260 533T214 355Q214 241 256 179T393 116Q437 116 480 126T575 154V27Q528 8 482 -1T379 -10Q269 -10 198 35T92 163T58 356Q58 464 97 547T210 677T393 724Q446 724 499 711T602 674L553
551Q513 570 473 584T393 598Z" />
<glyph unicode="D" glyph-name="D" horiz-adv-x="740" d="M682 364Q682 183 580 92T292 0H90V714H314Q426 714 508 674T636 557T682 364ZM525 360Q525 479 473 534T322 590H241V125H306Q525 125 525 360Z" />
<glyph unicode="E" glyph-name="E" horiz-adv-x="560" d="M501 0H90V714H501V590H241V433H483V309H241V125H501V0Z" />
<glyph unicode="F" glyph-name="F" horiz-adv-x="549" d="M239 0H90V714H499V590H239V406H481V282H239V0Z" />
<glyph unicode="G" glyph-name="G" horiz-adv-x="724" d="M361 401H644V31Q588 12 528 1T390 -10Q230 -10 144 84T58 358Q58 470 101 552T228 679T431 724Q488 724 543 712T643 680L593 559Q560 576 518 587T430 598Q364 598 316 568T241 484T214 355Q214 285
233 231T293 147T400 116Q432 116 454 119T496 126V275H361V401Z" />
<glyph unicode="H" glyph-name="H" horiz-adv-x="765" d="M675 0H524V308H241V0H90V714H241V434H524V714H675V0Z" />
<glyph unicode="I" glyph-name="I" horiz-adv-x="389" d="M357 0H32V86L119 126V588L32 628V714H357V628L270 588V126L357 86V0Z" />
<glyph unicode="J" glyph-name="J" horiz-adv-x="331" d="M15 -210Q-14 -210 -36 -207T-74 -199V-73Q-58 -77 -41 -80T-3 -83Q23 -83 44 -73T78 -35T90 45V714H241V46Q241 -46 213 -102T133 -184T15 -210Z" />
<glyph unicode="K" glyph-name="K" horiz-adv-x="664" d="M664 0H492L305 301L241 255V0H90V714H241V387Q256 408 271 429T301 471L494 714H662L413 398L664 0Z" />
<glyph unicode="L" glyph-name="L" horiz-adv-x="565" d="M90 0V714H241V125H531V0H90Z" />
<glyph unicode="M" glyph-name="M" horiz-adv-x="943" d="M392 0L220 560H216Q217 540 219 500T223 415T225 332V0H90V714H296L465 168H468L647 714H853V0H712V338Q712 372 713 416T716 499T719 559H715L531 0H392Z" />
<glyph unicode="N" glyph-name="N" horiz-adv-x="813" d="M723 0H531L220 540H216Q218 489 220 438T225 336V0H90V714H281L591 179H594Q593 229 591 278T587 376V714H723V0Z" />
<glyph unicode="O" glyph-name="O" horiz-adv-x="796" d="M738 358Q738 247 702 165T590 36T398 -10Q282 -10 207 36T95 165T58 359Q58 470 94 552T206 679T399 725Q515 725 590 680T701 552T738 358ZM217 358Q217 246 260 182T398 117Q495 117 537 181T579 358Q579
471 537 535T399 599Q303 599 260 535T217 358Z" />
<glyph unicode="P" glyph-name="P" horiz-adv-x="628" d="M318 714Q456 714 519 655T583 491Q583 429 557 375T471 287T306 254H241V0H90V714H318ZM310 590H241V378H291Q355 378 392 403T430 486Q430 590 310 590Z" />
<glyph unicode="Q" glyph-name="Q" horiz-adv-x="796" d="M738 358Q738 238 695 151T562 22L734 -170H540L409 -10H398Q282 -10 207 36T95 165T58 359Q58 470 94 552T206 679T399 725Q515 725 590 680T701 552T738 358ZM217 358Q217 246 260 182T398 117Q495 117
537 181T579 358Q579 471 537 535T399 599Q303 599 260 535T217 358Z" />
<glyph unicode="R" glyph-name="R" horiz-adv-x="660" d="M298 714Q444 714 513 661T583 500Q583 451 565 415T516 353T450 311L660 0H492L322 274H241V0H90V714H298ZM287 590H241V397H290Q365 397 397 422T430 496Q430 547 396 568T287 590Z" />
<glyph unicode="S" glyph-name="S" horiz-adv-x="551" d="M511 198Q511 103 443 47T248 -10Q135 -10 46 33V174Q97 152 151 134T260 115Q316 115 339 136T363 191Q363 218 345 237T295 272T224 308Q199 320 170 336T115 377T71 437T54 521Q54 617 119 670T296
724Q352 724 402 711T508 674L459 556Q410 576 371 587T291 598Q248 598 225 578T202 526Q202 488 236 466T337 412Q392 386 430 358T490 292T511 198Z" />
<glyph unicode="T" glyph-name="T" horiz-adv-x="579" d="M365 0H214V588H20V714H559V588H365V0Z" />
<glyph unicode="U" glyph-name="U" horiz-adv-x="756" d="M671 252Q671 178 639 119T541 25T375 -10Q233 -10 159 62T85 254V714H236V277Q236 189 272 153T379 117Q453 117 486 156T520 278V714H671V252Z" />
<glyph unicode="V" glyph-name="V" horiz-adv-x="650" d="M650 714L407 0H242L0 714H153L287 289Q291 278 298 249T314 187T325 132Q328 154 335 186T351 248T362 289L497 714H650Z" />
<glyph unicode="W" glyph-name="W" horiz-adv-x="967" d="M967 714L785 0H613L516 375Q513 386 509 408T499 456T489 505T483 542Q482 529 478 506T468 457T458 409T450 374L354 0H182L0 714H149L240 324Q246 301 253 266T266 196T275 137Q278 162 284 196T296
263T308 314L412 714H555L659 314Q664 297 670 264T683 196T692 137Q695 162 701 196T714 266T727 324L818 714H967Z" />
<glyph unicode="X" glyph-name="X" horiz-adv-x="667" d="M667 0H494L328 270L162 0H0L237 368L15 714H182L336 457L487 714H650L426 360L667 0Z" />
<glyph unicode="Y" glyph-name="Y" horiz-adv-x="624" d="M312 420L461 714H624L387 278V0H237V273L0 714H164L312 420Z" />
<glyph unicode="Z" glyph-name="Z" horiz-adv-x="579" d="M555 0H24V98L366 589H33V714H546V616L204 125H555V0Z" />
<glyph unicode="[" glyph-name="bracketleft" horiz-adv-x="331" d="M306 -158H70V714H306V611H197V-55H306V-158Z" />
<glyph unicode="\" glyph-name="backslash" horiz-adv-x="413" d="M141 714L407 0H272L6 714H141Z" />
<glyph unicode="]" glyph-name="bracketright" horiz-adv-x="331" d="M25 -55H134V611H25V714H261V-158H25V-55Z" />
<glyph unicode="^" glyph-name="asciicircum" horiz-adv-x="572" d="M23 254L237 718H307L549 254H432L275 568L138 254H23Z" />
<glyph unicode="_" glyph-name="underscore" horiz-adv-x="411" d="M413 -158H-2V-90H413V-158Z" />
<glyph unicode="`" glyph-name="grave" horiz-adv-x="362" d="M207 766Q222 744 242 717T284 664T322 619V606H223Q204 619 179 638T127 680T77 722T40 756V766H207Z" />
<glyph unicode="a" glyph-name="a" horiz-adv-x="604" d="M302 557Q412 557 470 510T529 364V0H425L396 74H392Q357 30 318 10T211 -10Q138 -10 90 32T42 163Q42 250 103 291T286 337L381 340V364Q381 407 359 427T296 447Q256 447 218 436T142 407L93 508Q137
531 190 544T302 557ZM323 251Q251 249 223 225T195 162Q195 128 215 114T267 99Q315 99 348 127T381 208V253L323 251Z" />
<glyph unicode="b" glyph-name="b" horiz-adv-x="633" d="M227 583Q227 552 225 522T221 475H227Q249 509 286 532T382 556Q474 556 531 485T588 274Q588 134 530 62T378 -10Q318 -10 284 11T227 60H217L192 0H78V760H227V583ZM334 437Q276 437 253 401T227 291V275Q227
196 250 154T336 111Q382 111 409 153T436 276Q436 356 409 396T334 437Z" />
<glyph unicode="c" glyph-name="c" horiz-adv-x="514" d="M300 -10Q178 -10 112 57T45 270Q45 370 79 433T173 526T313 556Q369 556 410 545T483 519L439 404Q404 418 374 427T313 436Q197 436 197 271Q197 189 227 150T313 111Q360 111 396 123T466 158V31Q432
9 395 0T300 -10Z" />
<glyph unicode="d" glyph-name="d" horiz-adv-x="633" d="M251 -10Q160 -10 103 61T45 272Q45 412 103 484T255 556Q314 556 352 533T412 476H417Q414 492 410 522T406 585V760H555V0H441L412 71H406Q384 37 347 14T251 -10ZM303 109Q365 109 390 145T416 255V271Q416
351 392 393T301 435Q252 435 224 393T196 270Q196 190 224 150T303 109Z" />
<glyph unicode="e" glyph-name="e" horiz-adv-x="591" d="M303 556Q416 556 482 492T548 308V236H196Q198 173 233 137T332 101Q385 101 428 111T517 144V29Q477 9 433 0T325 -10Q243 -10 180 20T81 113T45 269Q45 365 77 428T168 524T303 556ZM304 450Q261 450
233 422T199 335H408Q407 385 382 417T304 450Z" />
<glyph unicode="f" glyph-name="f" horiz-adv-x="387" d="M380 434H251V0H102V434H20V506L102 546V586Q102 656 125 694T192 749T295 765Q339 765 374 758T432 742L394 633Q377 638 357 642T311 647Q280 647 266 628T251 580V546H380V434Z" />
<glyph unicode="g" glyph-name="g" horiz-adv-x="633" d="M255 556Q356 556 413 476H417L429 546H555V-1Q555 -118 486 -179T282 -240Q224 -240 175 -233T78 -208V-89Q179 -131 291 -131Q406 -131 406 -7V4Q406 21 407 39T410 71H406Q378 28 339 9T251 -10Q154
-10 100 64T45 272Q45 406 101 481T255 556ZM302 435Q197 435 197 270Q197 107 304 107Q361 107 388 139T416 253V271Q416 359 389 397T302 435Z" />
<glyph unicode="h" glyph-name="h" horiz-adv-x="657" d="M227 605Q227 565 225 528T220 476H228Q254 518 295 537T386 556Q475 556 528 509T582 356V0H433V319Q433 437 345 437Q278 437 253 391T227 257V0H78V760H227V605Z" />
<glyph unicode="i" glyph-name="i" horiz-adv-x="305" d="M153 760Q186 760 210 745T234 687Q234 646 210 630T153 614Q119 614 96 630T72 687Q72 729 95 744T153 760ZM227 546V0H78V546H227Z" />
<glyph unicode="j" glyph-name="j" horiz-adv-x="305" d="M72 687Q72 729 95 744T153 760Q186 760 210 745T234 687Q234 646 210 630T153 614Q119 614 96 630T72 687ZM34 -240Q9 -240 -18 -237T-64 -228V-111Q-46 -115 -30 -117T6 -120Q36 -120 57 -103T78 -37V546H227V-59Q227
-109 208 -150T147 -215T34 -240Z" />
<glyph unicode="k" glyph-name="k" horiz-adv-x="620" d="M227 420Q227 389 225 359T219 297H221Q236 318 252 339T286 380L439 546H607L390 309L620 0H448L291 221L227 170V0H78V760H227V420Z" />
<glyph unicode="l" glyph-name="l" horiz-adv-x="305" d="M227 0H78V760H227V0Z" />
<glyph unicode="m" glyph-name="m" horiz-adv-x="982" d="M719 556Q812 556 859 509T907 356V0H758V319Q758 437 676 437Q617 437 592 395T567 274V0H418V319Q418 437 336 437Q274 437 251 391T227 257V0H78V546H192L212 476H220Q245 518 288 537T379 556Q439
556 481 537T545 476H558Q583 518 627 537T719 556Z" />
<glyph unicode="n" glyph-name="n" horiz-adv-x="657" d="M388 556Q476 556 529 509T582 356V0H433V319Q433 378 412 407T345 437Q277 437 252 391T227 257V0H78V546H192L212 476H220Q246 518 291 537T388 556Z" />
<glyph unicode="o" glyph-name="o" horiz-adv-x="619" d="M574 274Q574 138 503 64T308 -10Q232 -10 173 23T79 119T45 274Q45 410 116 483T311 556Q388 556 447 523T540 428T574 274ZM197 274Q197 193 223 152T310 110Q369 110 395 151T422 274Q422 355 396 395T309
436Q250 436 224 396T197 274Z" />
<glyph unicode="p" glyph-name="p" horiz-adv-x="633" d="M382 556Q474 556 531 485T588 274Q588 135 529 63T378 -10Q319 -10 284 11T227 60H219Q227 18 227 -20V-240H78V546H199L220 475H227Q249 508 286 532T382 556ZM334 437Q276 437 253 401T227 291V275Q227
196 250 154T336 111Q387 111 411 153T436 276Q436 437 334 437Z" />
<glyph unicode="q" glyph-name="q" horiz-adv-x="633" d="M406 -11Q406 31 412 71H406Q385 37 348 14T251 -10Q159 -10 102 61T45 272Q45 412 103 484T254 556Q314 556 351 533T412 476H416L429 546H555V-240H406V-11ZM304 107Q366 107 390 143T416 253V271Q416
351 392 393T302 435Q249 435 223 393T197 270Q197 107 304 107Z" />
<glyph unicode="r" glyph-name="r" horiz-adv-x="454" d="M383 556Q394 556 409 555T433 552L422 412Q415 414 402 415T378 417Q340 417 305 404T249 360T227 278V0H78V546H191L213 454H220Q244 496 286 526T383 556Z" />
<glyph unicode="s" glyph-name="s" horiz-adv-x="497" d="M459 162Q459 79 401 35T226 -10Q169 -10 128 -3T46 22V145Q90 125 141 112T231 99Q275 99 293 112T312 146Q312 160 305 171T272 196T194 232Q143 254 110 275T61 327T45 404Q45 480 104 518T261 556Q312
556 358 546T453 513L408 406Q368 423 332 434T259 446Q193 446 193 410Q193 397 201 387T234 364T307 332Q354 313 388 293T440 242T459 162Z" />
<glyph unicode="t" glyph-name="t" horiz-adv-x="434" d="M308 109Q333 109 356 114T402 126V15Q378 5 343 -2T265 -10Q216 -10 178 6T117 61T94 171V434H23V497L105 547L148 662H243V546H396V434H243V171Q243 140 261 125T308 109Z" />
<glyph unicode="u" glyph-name="u" horiz-adv-x="657" d="M579 546V0H465L445 70H437Q411 28 366 9T269 -10Q181 -10 128 37T75 190V546H224V227Q224 169 245 139T312 109Q380 109 405 155T430 289V546H579Z" />
<glyph unicode="v" glyph-name="v" horiz-adv-x="569" d="M208 0L0 546H156L261 235Q270 207 275 177T282 123H286Q289 177 308 235L413 546H569L361 0H208Z" />
<glyph unicode="w" glyph-name="w" horiz-adv-x="856" d="M485 191Q481 208 474 241T457 313T440 384T429 432H425Q422 417 415 385T398 314T381 241T369 189L325 0H165L10 546H158L221 304Q228 279 233 244T244 177T251 125H255Q256 139 259 162T266 211T274
256T280 284L347 546H511L575 284Q579 270 584 239T594 176T599 125H603Q605 142 610 174T621 243T635 304L700 546H846L689 0H527L485 191Z" />
<glyph unicode="x" glyph-name="x" horiz-adv-x="578" d="M190 279L14 546H183L289 372L396 546H565L387 279L573 0H404L289 187L174 0H5L190 279Z" />
<glyph unicode="y" glyph-name="y" horiz-adv-x="569" d="M0 546H163L266 239Q274 217 278 194T284 144H287Q290 170 295 193T308 239L409 546H569L338 -70Q307 -155 248 -197T110 -240Q85 -240 67 -238T34 -232V-114Q45 -116 60 -118T93 -120Q140 -120 167 -92T208
-23L217 4L0 546Z" />
<glyph unicode="z" glyph-name="z" horiz-adv-x="488" d="M458 0H27V88L280 432H42V546H449V449L203 114H458V0Z" />
<glyph unicode="{" glyph-name="braceleft" horiz-adv-x="394" d="M354 -158Q269 -158 223 -144T158 -100T140 -22V132Q140 179 108 199T15 219V336Q76 336 108 356T140 423V578Q140 626 158 656T222 700T354 714V604Q315 603 292 590T269 535V389Q269 298 155
281V275Q269 258 269 167V21Q269 -21 292 -34T354 -48V-158Z" />
<glyph unicode="|" glyph-name="bar" horiz-adv-x="551" d="M222 757H329V-227H222V757Z" />
<glyph unicode="}" glyph-name="braceright" horiz-adv-x="394" d="M40 -48Q79 -47 102 -34T125 21V167Q125 258 239 275V281Q125 298 125 389V535Q125 577 102 590T40 604V714Q126 714 172 700T236 656T254 578V423Q254 376 286 356T379 336V219Q318 219 286
199T254 132V-22Q254 -70 236 -100T172 -144T40 -158V-48Z" />
<glyph unicode="~" glyph-name="asciitilde" horiz-adv-x="572" d="M268 301Q231 317 206 322T157 328Q129 328 99 311T43 269V382Q93 435 168 435Q197 435 226 430T303 404Q340 388 366 383T414 377Q443 377 473 394T528 436V323Q478 270 403 270Q374 270 345
276T268 301Z" />
<glyph unicode="&#xa0;" glyph-name="uni00A0" horiz-adv-x="260" />
<glyph unicode="&#xa1;" glyph-name="exclamdown" horiz-adv-x="286" d="M228 463Q228 417 203 399T142 380Q108 380 83 398T57 463Q57 507 82 526T142 546Q178 546 203 527T228 463ZM82 296H201L226 -180H57L82 296Z" />
<glyph unicode="&#xa2;" glyph-name="cent" horiz-adv-x="572" d="M362 647Q409 645 444 635T508 611L464 496Q429 510 399 519T338 528Q222 528 222 363Q222 281 252 242T338 203Q385 203 418 213T491 240V116Q460 101 429 93T362 82V-10H275V86Q178 100 124
166T70 362Q70 456 95 514T167 603T275 643V724H362V647Z" />
<glyph unicode="&#xa3;" glyph-name="sterling" horiz-adv-x="572" d="M342 724Q396 724 444 713T532 684L487 572Q453 586 419 594T354 603Q322 603 299 585T275 519V425H458V318H275V248Q275 195 251 168T201 127H552V0H40V121Q81 139 104 164T128 247V318H41V425H128V520Q128
594 157 638T234 703T342 724Z" />
<glyph unicode="&#xa4;" glyph-name="currency" horiz-adv-x="572" d="M92 353Q92 379 99 403T118 449L55 511L127 583L189 521Q210 533 235 540T285 547Q336 547 381 520L443 583L516 513L453 450Q465 430 472 405T479 353Q479 300 453 256L514 195L443 124L381
185Q360 174 336 167T285 160Q229 160 188 185L127 125L56 196L118 257Q92 301 92 353ZM193 353Q193 315 220 288T285 261Q324 261 351 288T379 353Q379 392 352 419T285 446Q247 446 220 419T193 353Z" />
<glyph unicode="&#xa5;" glyph-name="yen" horiz-adv-x="572" d="M285 420L414 714H567L380 349H475V262H355V195H475V108H355V0H215V108H94V195H215V262H94V349H187L3 714H157L285 420Z" />
<glyph unicode="&#xa6;" glyph-name="brokenbar" horiz-adv-x="551" d="M222 757H329V359H222V757ZM222 171H329V-227H222V171Z" />
<glyph unicode="&#xa7;" glyph-name="section" horiz-adv-x="486" d="M59 391Q59 434 78 464T124 512Q93 532 76 560T59 625Q59 688 113 726T257 765Q307 765 350 754T434 724L394 631Q361 647 327 659T254 672Q214 672 196 661T178 627Q178 602 202 585T282 546Q352
518 394 479T437 381Q437 332 420 303T376 255Q406 236 421 210T437 148Q437 76 379 33T222 -10Q169 -10 128 0T52 29V130Q90 111 137 97T222 82Q277 82 297 98T317 139Q317 156 310 168T281 192T216 223Q166 244 131 265T78 317T59 391ZM168 402Q168 372 195 349T281
301L288 298Q302 309 314 326T326 368Q326 398 303 421T212 469Q195 462 182 445T168 402Z" />
<glyph unicode="&#xa8;" glyph-name="dieresis" horiz-adv-x="607" d="M136 686Q136 721 156 736T204 752Q232 752 252 737T273 686Q273 653 253 637T204 621Q176 621 156 637T136 686ZM333 686Q333 721 353 736T402 752Q430 752 450 737T471 686Q471 653 451
637T402 621Q373 621 353 637T333 686Z" />
<glyph unicode="&#xa9;" glyph-name="copyright" horiz-adv-x="832" d="M416 -10Q336 -10 269 17T153 93T76 210T49 357Q49 433 76 499T154 616T271 695T416 724Q492 724 558 697T675 621T754 504T783 357Q783 277 756 210T680 94T563 17T416 -10ZM416 54Q498
54 565 93T673 200T713 357Q713 420 691 475T628 572T534 637T416 661Q331 661 263 622T156 515T117 357Q117 269 155 201T261 93T416 54ZM431 128Q329 128 279 191T228 357Q228 424 252 475T322 556T435 586Q500 586 558 556L529 489Q479 515 436 515Q377 515
345 473T312 357Q312 281 340 240T435 198Q458 198 486 204T540 221V152Q516 142 491 135T431 128Z" />
<glyph unicode="&#xaa;" glyph-name="ordfeminine" horiz-adv-x="383" d="M200 722Q271 722 305 686T340 589V373H274L259 427Q215 367 141 367Q88 367 56 394T23 476Q23 535 68 559T194 587L242 589V597Q242 646 180 646Q158 646 131 638T74 616L42 682Q74 698
113 710T200 722ZM194 528Q150 525 137 510T123 477Q123 458 134 450T161 441Q199 441 220 461T242 513V531L194 528Z" />
<glyph unicode="&#xab;" glyph-name="guillemotleft" horiz-adv-x="615" d="M40 280L221 502L328 444L192 274L328 104L221 46L40 267V280ZM287 280L468 502L575 444L439 274L575 104L468 46L287 267V280Z" />
<glyph unicode="&#xac;" glyph-name="logicalnot" horiz-adv-x="572" d="M528 406V121H421V299H43V406H528Z" />
<glyph unicode="&#xad;" glyph-name="uni00AD" horiz-adv-x="322" d="M30 207V329H292V207H30Z" />
<glyph unicode="&#xae;" glyph-name="registered" horiz-adv-x="832" d="M416 -10Q336 -10 269 17T153 93T76 210T49 357Q49 433 76 499T154 616T271 695T416 724Q492 724 558 697T675 621T754 504T783 357Q783 277 756 210T680 94T563 17T416 -10ZM416 54Q498
54 565 93T673 200T713 357Q713 420 691 475T628 572T534 637T416 661Q331 661 263 622T156 515T117 357Q117 269 155 201T261 93T416 54ZM274 138V580H407Q489 580 527 546T565 446Q565 399 541 372T487 332L603 138H512L417 306H355V138H274ZM405 373Q444 373
463 393T483 444Q483 479 466 495T404 511H355V373H405Z" />
<glyph unicode="&#xaf;" glyph-name="overscore" horiz-adv-x="500" d="M503 760H-3V858H503V760Z" />
<glyph unicode="&#xb0;" glyph-name="degree" horiz-adv-x="428" d="M214 387Q163 387 124 408T62 468T39 555Q39 604 61 642T123 702T214 724Q266 724 305 703T366 643T388 555Q388 506 366 468T305 409T214 387ZM214 480Q246 480 268 500T290 555Q290 591 268
611T214 632Q183 632 161 612T138 555Q138 521 160 501T214 480Z" />
<glyph unicode="&#xb1;" glyph-name="plusminus" horiz-adv-x="572" d="M339 436H528V329H339V141H232V329H43V436H232V626H339V436ZM43 0V107H528V0H43Z" />
<glyph unicode="&#xb2;" glyph-name="uni00B2" horiz-adv-x="379" d="M343 416H27V498L136 605Q181 649 197 672T214 722Q214 740 203 750T171 760Q132 760 83 717L23 791Q55 819 94 836T187 854Q252 854 291 823T331 732Q331 687 306 650T222 560L171 514H343V416Z" />
<glyph unicode="&#xb3;" glyph-name="uni00B3" horiz-adv-x="379" d="M184 853Q245 853 285 823T325 740Q325 706 306 682T242 643V637Q292 627 315 599T339 535Q339 476 296 442T162 408Q91 408 29 442V535Q61 516 93 504T161 491Q231 491 231 543Q231 563 214
579T150 595H95V673H140Q191 673 205 689T220 726Q220 745 208 757T171 769Q148 769 128 760T79 731L30 800Q60 823 97 838T184 853Z" />
<glyph unicode="&#xb4;" glyph-name="acute" horiz-adv-x="362" d="M322 756Q308 742 285 722T236 680T184 639T139 606H40V619Q56 638 77 663T120 716T155 766H322V756Z" />
<glyph unicode="&#xb5;" glyph-name="uni00B5" horiz-adv-x="660" d="M582 546V0H469L448 73H441Q421 32 392 11T319 -10Q258 -10 225 34H222Q224 24 225 3T226 -42T227 -84V-240H78V546H227V227Q227 109 316 109Q383 109 408 155T433 289V546H582Z" />
<glyph unicode="&#xb6;" glyph-name="paragraph" horiz-adv-x="655" d="M570 -127H491V662H410V-127H331V273Q301 264 260 264Q198 264 152 287T81 364T55 509Q55 605 82 659T160 737T275 760H570V-127Z" />
<glyph unicode="&#xb7;" glyph-name="middot" horiz-adv-x="285" d="M57 352Q57 398 82 416T143 435Q178 435 203 417T228 352Q228 308 203 289T143 269Q107 269 82 288T57 352Z" />
<glyph unicode="&#xb8;" glyph-name="cedilla" horiz-adv-x="205" d="M204 -122Q204 -178 172 -209T53 -240Q31 -240 14 -237T-18 -230V-148Q-4 -152 16 -155T52 -158Q66 -158 76 -152T87 -128Q87 -110 69 -96T6 -75L44 0H138L125 -30Q155 -40 179 -62T204 -122Z" />
<glyph unicode="&#xb9;" glyph-name="uni00B9" horiz-adv-x="379" d="M285 844V416H169V634Q169 647 169 668T171 708T173 735Q167 727 156 716T136 697L98 667L45 729L192 844H285Z" />
<glyph unicode="&#xba;" glyph-name="ordmasculine" horiz-adv-x="388" d="M360 545Q360 460 315 414T193 367Q121 367 75 413T28 545Q28 630 73 676T195 722Q266 722 313 676T360 545ZM127 545Q127 496 143 472T194 447Q260 447 260 545Q260 642 194 642Q159
642 143 618T127 545Z" />
<glyph unicode="&#xbb;" glyph-name="guillemotright" horiz-adv-x="615" d="M575 267L394 46L287 104L423 274L287 444L394 502L575 280V267ZM328 267L147 46L40 104L176 274L40 444L147 502L328 280V267Z" />
<glyph unicode="&#xbc;" glyph-name="onequarter" horiz-adv-x="830" d="M156 0L552 714H669L273 0H156ZM146 504Q146 517 146 538T148 578T150 605Q144 597 133 586T113 567L75 537L22 599L169 714H262V286H146V504ZM644 0V74H457V149L645 431H760V156H821V74H760V0H644ZM547
156H644V236Q644 278 647 326Q642 313 630 288T609 249L547 156Z" />
<glyph unicode="&#xbd;" glyph-name="onehalf" horiz-adv-x="874" d="M156 0L552 714H669L273 0H156ZM146 504Q146 517 146 538T148 578T150 605Q144 597 133 586T113 567L75 537L22 599L169 714H262V286H146V504ZM522 0V82L631 189Q676 233 692 256T709 306Q709
324 698 334T666 344Q627 344 578 301L518 375Q550 403 589 420T682 438Q747 438 786 407T826 316Q826 271 801 234T717 144L666 98H838V0H522Z" />
<glyph unicode="&#xbe;" glyph-name="threequarters" horiz-adv-x="845" d="M177 278Q106 278 44 312V405Q76 386 108 374T176 361Q246 361 246 413Q246 433 229 449T165 465H110V543H155Q206 543 220 559T235 596Q235 615 223 627T186 639Q163 639 143 630T94
601L45 670Q75 693 112 708T199 723Q260 723 300 693T340 610Q340 576 321 552T257 513V507Q307 497 330 469T354 405Q354 346 311 312T177 278ZM191 0L587 714H704L308 0H191ZM659 0V74H472V149L660 431H775V156H836V74H775V0H659ZM562 156H659V236Q659 278 662
326Q657 313 645 288T624 249L562 156Z" />
<glyph unicode="&#xbf;" glyph-name="questiondown" horiz-adv-x="477" d="M361 462Q361 416 336 398T275 379Q241 379 216 397T190 462Q190 506 215 525T275 545Q311 545 336 526T361 462ZM345 259Q345 210 324 176T252 104Q207 72 188 49T168 -7Q168 -38 191
-55T257 -72Q299 -72 340 -59T424 -24L477 -131Q428 -158 371 -175T246 -192Q142 -192 85 -142T27 -15Q27 26 40 56T79 112T144 166Q174 188 189 202T210 231T216 266V295H345V259Z" />
<glyph unicode="&#xc0;" glyph-name="Agrave" horiz-adv-x="690" d="M527 0L475 170H215L163 0H0L252 717H437L690 0H527ZM387 463Q382 480 374 506T358 559T345 606Q340 586 332 557T316 501T304 463L253 297H439L387 463ZM331 934Q346 912 366 885T408 832T446
787V774H347Q328 787 303 806T251 848T201 890T164 924V934H331Z" />
<glyph unicode="&#xc1;" glyph-name="Aacute" horiz-adv-x="690" d="M527 0L475 170H215L163 0H0L252 717H437L690 0H527ZM387 463Q382 480 374 506T358 559T345 606Q340 586 332 557T316 501T304 463L253 297H439L387 463ZM556 924Q542 910 519 890T470 848T418
807T373 774H274V787Q290 806 311 831T354 884T389 934H556V924Z" />
<glyph unicode="&#xc2;" glyph-name="Acircumflex" horiz-adv-x="690" d="M527 0L475 170H215L163 0H0L252 717H437L690 0H527ZM387 463Q382 480 374 506T358 559T345 606Q340 586 332 557T316 501T304 463L253 297H439L387 463ZM432 934Q446 912 468 885T515
831T557 787V774H458Q432 790 401 811T344 860Q318 833 288 812T232 774H133V787Q152 806 175 831T221 884T258 934H432Z" />
<glyph unicode="&#xc3;" glyph-name="Atilde" horiz-adv-x="690" d="M527 0L475 170H215L163 0H0L252 717H437L690 0H527ZM387 463Q382 480 374 506T358 559T345 606Q340 586 332 557T316 501T304 463L253 297H439L387 463ZM143 773Q149 851 186 887T276 924Q303
924 328 911T378 886T426 873Q441 873 455 886T475 925H548Q542 848 504 811T415 774Q389 774 364 786T314 812T265 825Q250 825 236 812T216 773H143Z" />
<glyph unicode="&#xc4;" glyph-name="Adieresis" horiz-adv-x="690" d="M527 0L475 170H215L163 0H0L252 717H437L690 0H527ZM387 463Q382 480 374 506T358 559T345 606Q340 586 332 557T316 501T304 463L253 297H439L387 463ZM177 854Q177 889 197 904T245 920Q273
920 293 905T314 854Q314 821 294 805T245 789Q217 789 197 805T177 854ZM374 854Q374 889 394 904T443 920Q471 920 491 905T512 854Q512 821 492 805T443 789Q414 789 394 805T374 854Z" />
<glyph unicode="&#xc5;" glyph-name="Aring" horiz-adv-x="690" d="M527 0L475 170H215L163 0H0L252 717H437L690 0H527ZM387 463Q382 480 374 506T358 559T345 606Q340 586 332 557T316 501T304 463L253 297H439L387 463ZM344 648Q290 648 257 679T223 764Q223
818 256 849T344 880Q396 880 432 849T468 765Q468 710 433 679T344 648ZM344 717Q364 717 377 729T391 764Q391 786 378 798T344 811Q324 811 311 799T297 764Q297 742 309 730T344 717Z" />
<glyph unicode="&#xc6;" glyph-name="AE" horiz-adv-x="952" d="M893 0H467V170H227L154 0H0L320 714H893V590H618V433H875V309H618V125H893V0ZM282 297H467V585H405L282 297Z" />
<glyph unicode="&#xc7;" glyph-name="Ccedilla" horiz-adv-x="637" d="M393 598Q306 598 260 533T214 355Q214 241 256 179T393 116Q437 116 480 126T575 154V27Q528 8 482 -1T379 -10Q269 -10 198 35T92 163T58 356Q58 464 97 547T210 677T393 724Q446 724 499
711T602 674L553 551Q513 570 473 584T393 598ZM486 -122Q486 -178 454 -209T335 -240Q313 -240 296 -237T264 -230V-148Q278 -152 298 -155T334 -158Q348 -158 358 -152T369 -128Q369 -110 351 -96T288 -75L326 0H420L407 -30Q437 -40 461 -62T486 -122Z" />
<glyph unicode="&#xc8;" glyph-name="Egrave" horiz-adv-x="560" d="M501 0H90V714H501V590H241V433H483V309H241V125H501V0ZM287 934Q302 912 322 885T364 832T402 787V774H303Q284 787 259 806T207 848T157 890T120 924V934H287Z" />
<glyph unicode="&#xc9;" glyph-name="Eacute" horiz-adv-x="560" d="M501 0H90V714H501V590H241V433H483V309H241V125H501V0ZM512 924Q498 910 475 890T426 848T374 807T329 774H230V787Q246 806 267 831T310 884T345 934H512V924Z" />
<glyph unicode="&#xca;" glyph-name="Ecircumflex" horiz-adv-x="560" d="M501 0H90V714H501V590H241V433H483V309H241V125H501V0ZM388 934Q402 912 424 885T471 831T513 787V774H414Q388 790 357 811T300 860Q274 833 244 812T188 774H89V787Q108 806 131 831T177
884T214 934H388Z" />
<glyph unicode="&#xcb;" glyph-name="Edieresis" horiz-adv-x="560" d="M501 0H90V714H501V590H241V433H483V309H241V125H501V0ZM133 854Q133 889 153 904T201 920Q229 920 249 905T270 854Q270 821 250 805T201 789Q173 789 153 805T133 854ZM330 854Q330 889
350 904T399 920Q427 920 447 905T468 854Q468 821 448 805T399 789Q370 789 350 805T330 854Z" />
<glyph unicode="&#xcc;" glyph-name="Igrave" horiz-adv-x="389" d="M357 0H32V86L119 126V588L32 628V714H357V628L270 588V126L357 86V0ZM181 934Q196 912 216 885T258 832T296 787V774H197Q178 787 153 806T101 848T51 890T14 924V934H181Z" />
<glyph unicode="&#xcd;" glyph-name="Iacute" horiz-adv-x="389" d="M357 0H32V86L119 126V588L32 628V714H357V628L270 588V126L357 86V0ZM406 924Q392 910 369 890T320 848T268 807T223 774H124V787Q140 806 161 831T204 884T239 934H406V924Z" />
<glyph unicode="&#xce;" glyph-name="Icircumflex" horiz-adv-x="389" d="M357 0H32V86L119 126V588L32 628V714H357V628L270 588V126L357 86V0ZM282 934Q296 912 318 885T365 831T407 787V774H308Q282 790 251 811T194 860Q168 833 138 812T82 774H-17V787Q2
806 25 831T71 884T108 934H282Z" />
<glyph unicode="&#xcf;" glyph-name="Idieresis" horiz-adv-x="389" d="M357 0H32V86L119 126V588L32 628V714H357V628L270 588V126L357 86V0ZM27 854Q27 889 47 904T95 920Q123 920 143 905T164 854Q164 821 144 805T95 789Q67 789 47 805T27 854ZM224 854Q224
889 244 904T293 920Q321 920 341 905T362 854Q362 821 342 805T293 789Q264 789 244 805T224 854Z" />
<glyph unicode="&#xd0;" glyph-name="Eth" horiz-adv-x="740" d="M314 714Q426 714 508 674T636 557T682 364Q682 183 580 92T292 0H90V291H23V415H90V714H314ZM321 590H241V415H357V291H241V125H305Q525 125 525 360Q525 479 472 534T321 590Z" />
<glyph unicode="&#xd1;" glyph-name="Ntilde" horiz-adv-x="813" d="M723 0H531L220 540H216Q218 489 220 438T225 336V0H90V714H281L591 179H594Q593 229 591 278T587 376V714H723V0ZM205 773Q211 851 248 887T338 924Q365 924 390 911T440 886T488 873Q503 873
517 886T537 925H610Q604 848 566 811T477 774Q451 774 426 786T376 812T327 825Q312 825 298 812T278 773H205Z" />
<glyph unicode="&#xd2;" glyph-name="Ograve" horiz-adv-x="796" d="M738 358Q738 247 702 165T590 36T398 -10Q282 -10 207 36T95 165T58 359Q58 470 94 552T206 679T399 725Q515 725 590 680T701 552T738 358ZM217 358Q217 246 260 182T398 117Q495 117 537
181T579 358Q579 471 537 535T399 599Q303 599 260 535T217 358ZM384 934Q399 912 419 885T461 832T499 787V774H400Q381 787 356 806T304 848T254 890T217 924V934H384Z" />
<glyph unicode="&#xd3;" glyph-name="Oacute" horiz-adv-x="796" d="M738 358Q738 247 702 165T590 36T398 -10Q282 -10 207 36T95 165T58 359Q58 470 94 552T206 679T399 725Q515 725 590 680T701 552T738 358ZM217 358Q217 246 260 182T398 117Q495 117 537
181T579 358Q579 471 537 535T399 599Q303 599 260 535T217 358ZM609 924Q595 910 572 890T523 848T471 807T426 774H327V787Q343 806 364 831T407 884T442 934H609V924Z" />
<glyph unicode="&#xd4;" glyph-name="Ocircumflex" horiz-adv-x="796" d="M738 358Q738 247 702 165T590 36T398 -10Q282 -10 207 36T95 165T58 359Q58 470 94 552T206 679T399 725Q515 725 590 680T701 552T738 358ZM217 358Q217 246 260 182T398 117Q495 117
537 181T579 358Q579 471 537 535T399 599Q303 599 260 535T217 358ZM485 934Q499 912 521 885T568 831T610 787V774H511Q485 790 454 811T397 860Q371 833 341 812T285 774H186V787Q205 806 228 831T274 884T311 934H485Z" />
<glyph unicode="&#xd5;" glyph-name="Otilde" horiz-adv-x="796" d="M738 358Q738 247 702 165T590 36T398 -10Q282 -10 207 36T95 165T58 359Q58 470 94 552T206 679T399 725Q515 725 590 680T701 552T738 358ZM217 358Q217 246 260 182T398 117Q495 117 537
181T579 358Q579 471 537 535T399 599Q303 599 260 535T217 358ZM196 773Q202 851 239 887T329 924Q356 924 381 911T431 886T479 873Q494 873 508 886T528 925H601Q595 848 557 811T468 774Q442 774 417 786T367 812T318 825Q303 825 289 812T269 773H196Z" />
<glyph unicode="&#xd6;" glyph-name="Odieresis" horiz-adv-x="796" d="M738 358Q738 247 702 165T590 36T398 -10Q282 -10 207 36T95 165T58 359Q58 470 94 552T206 679T399 725Q515 725 590 680T701 552T738 358ZM217 358Q217 246 260 182T398 117Q495 117 537
181T579 358Q579 471 537 535T399 599Q303 599 260 535T217 358ZM230 854Q230 889 250 904T298 920Q326 920 346 905T367 854Q367 821 347 805T298 789Q270 789 250 805T230 854ZM427 854Q427 889 447 904T496 920Q524 920 544 905T565 854Q565 821 545 805T496
789Q467 789 447 805T427 854Z" />
<glyph unicode="&#xd7;" glyph-name="multiply" horiz-adv-x="572" d="M433 575L508 502L359 353L506 205L433 131L284 278L137 132L64 206L209 353L63 500L137 575L284 429L433 575Z" />
<glyph unicode="&#xd8;" glyph-name="Oslash" horiz-adv-x="796" d="M738 358Q738 247 702 165T590 36T398 -10Q303 -10 234 22L190 -44L111 9L155 75Q106 124 82 196T58 359Q58 470 94 552T206 679T399 725Q449 725 491 717T567 691L608 752L686 701L643 637Q691
589 714 518T738 358ZM217 358Q217 313 223 275T244 208L491 577Q452 599 399 599Q303 599 260 535T217 358ZM579 358Q579 447 554 503L310 136Q328 127 350 122T398 117Q495 117 537 181T579 358Z" />
<glyph unicode="&#xd9;" glyph-name="Ugrave" horiz-adv-x="756" d="M671 252Q671 178 639 119T541 25T375 -10Q233 -10 159 62T85 254V714H236V277Q236 189 272 153T379 117Q453 117 486 156T520 278V714H671V252ZM364 934Q379 912 399 885T441 832T479 787V774H380Q361
787 336 806T284 848T234 890T197 924V934H364Z" />
<glyph unicode="&#xda;" glyph-name="Uacute" horiz-adv-x="756" d="M671 252Q671 178 639 119T541 25T375 -10Q233 -10 159 62T85 254V714H236V277Q236 189 272 153T379 117Q453 117 486 156T520 278V714H671V252ZM589 924Q575 910 552 890T503 848T451 807T406
774H307V787Q323 806 344 831T387 884T422 934H589V924Z" />
<glyph unicode="&#xdb;" glyph-name="Ucircumflex" horiz-adv-x="756" d="M671 252Q671 178 639 119T541 25T375 -10Q233 -10 159 62T85 254V714H236V277Q236 189 272 153T379 117Q453 117 486 156T520 278V714H671V252ZM465 934Q479 912 501 885T548 831T590
787V774H491Q465 790 434 811T377 860Q351 833 321 812T265 774H166V787Q185 806 208 831T254 884T291 934H465Z" />
<glyph unicode="&#xdc;" glyph-name="Udieresis" horiz-adv-x="756" d="M671 252Q671 178 639 119T541 25T375 -10Q233 -10 159 62T85 254V714H236V277Q236 189 272 153T379 117Q453 117 486 156T520 278V714H671V252ZM210 854Q210 889 230 904T278 920Q306 920
326 905T347 854Q347 821 327 805T278 789Q250 789 230 805T210 854ZM407 854Q407 889 427 904T476 920Q504 920 524 905T545 854Q545 821 525 805T476 789Q447 789 427 805T407 854Z" />
<glyph unicode="&#xdd;" glyph-name="Yacute" horiz-adv-x="624" d="M312 420L461 714H624L387 278V0H237V273L0 714H164L312 420ZM523 924Q509 910 486 890T437 848T385 807T340 774H241V787Q257 806 278 831T321 884T356 934H523V924Z" />
<glyph unicode="&#xde;" glyph-name="Thorn" horiz-adv-x="628" d="M583 376Q583 315 558 262T475 176T316 143H241V0H90V714H241V602H328Q460 602 521 541T583 376ZM290 265Q361 265 395 291T430 376Q430 429 399 454T302 479H241V265H290Z" />
<glyph unicode="&#xdf;" glyph-name="germandbls" horiz-adv-x="711" d="M610 606Q610 569 596 542T561 495T519 460T484 433T470 407Q470 388 493 373T572 321Q621 290 648 254T676 159Q676 76 619 33T451 -10Q358 -10 303 21V139Q326 123 366 110T441 97Q480
97 501 112T523 157Q523 175 516 187T490 215T431 252Q370 287 346 316T322 385Q322 416 335 438T369 476T410 507T444 539T458 580Q458 611 426 630T347 649Q295 649 261 625T227 551V0H78V556Q78 627 113 673T210 742T347 765Q422 765 481 747T575 693T610 606Z"
/>
<glyph unicode="&#xe0;" glyph-name="agrave" horiz-adv-x="604" d="M302 557Q412 557 470 510T529 364V0H425L396 74H392Q357 30 318 10T211 -10Q138 -10 90 32T42 163Q42 250 103 291T286 337L381 340V364Q381 407 359 427T296 447Q256 447 218 436T142 407L93
508Q137 531 190 544T302 557ZM323 251Q251 249 223 225T195 162Q195 128 215 114T267 99Q315 99 348 127T381 208V253L323 251ZM288 766Q303 744 323 717T365 664T403 619V606H304Q285 619 260 638T208 680T158 722T121 756V766H288Z" />
<glyph unicode="&#xe1;" glyph-name="aacute" horiz-adv-x="604" d="M302 557Q412 557 470 510T529 364V0H425L396 74H392Q357 30 318 10T211 -10Q138 -10 90 32T42 163Q42 250 103 291T286 337L381 340V364Q381 407 359 427T296 447Q256 447 218 436T142 407L93
508Q137 531 190 544T302 557ZM323 251Q251 249 223 225T195 162Q195 128 215 114T267 99Q315 99 348 127T381 208V253L323 251ZM513 756Q499 742 476 722T427 680T375 639T330 606H231V619Q247 638 268 663T311 716T346 766H513V756Z" />
<glyph unicode="&#xe2;" glyph-name="acircumflex" horiz-adv-x="604" d="M302 557Q412 557 470 510T529 364V0H425L396 74H392Q357 30 318 10T211 -10Q138 -10 90 32T42 163Q42 250 103 291T286 337L381 340V364Q381 407 359 427T296 447Q256 447 218 436T142
407L93 508Q137 531 190 544T302 557ZM323 251Q251 249 223 225T195 162Q195 128 215 114T267 99Q315 99 348 127T381 208V253L323 251ZM389 766Q403 744 425 717T472 663T514 619V606H415Q389 622 358 643T301 692Q275 665 245 644T189 606H90V619Q109 638 132
663T178 716T215 766H389Z" />
<glyph unicode="&#xe3;" glyph-name="atilde" horiz-adv-x="604" d="M302 557Q412 557 470 510T529 364V0H425L396 74H392Q357 30 318 10T211 -10Q138 -10 90 32T42 163Q42 250 103 291T286 337L381 340V364Q381 407 359 427T296 447Q256 447 218 436T142 407L93
508Q137 531 190 544T302 557ZM323 251Q251 249 223 225T195 162Q195 128 215 114T267 99Q315 99 348 127T381 208V253L323 251ZM100 605Q106 683 143 719T233 756Q260 756 285 743T335 718T383 705Q398 705 412 718T432 757H505Q499 680 461 643T372 606Q346 606
321 618T271 644T222 657Q207 657 193 644T173 605H100Z" />
<glyph unicode="&#xe4;" glyph-name="adieresis" horiz-adv-x="604" d="M302 557Q412 557 470 510T529 364V0H425L396 74H392Q357 30 318 10T211 -10Q138 -10 90 32T42 163Q42 250 103 291T286 337L381 340V364Q381 407 359 427T296 447Q256 447 218 436T142 407L93
508Q137 531 190 544T302 557ZM323 251Q251 249 223 225T195 162Q195 128 215 114T267 99Q315 99 348 127T381 208V253L323 251ZM390 686Q390 721 410 736T458 752Q486 752 506 737T527 686Q527 653 507 637T458 621Q430 621 410 637T390 686ZM587 686Q587 721
607 736T656 752Q684 752 704 737T725 686Q725 653 705 637T656 621Q627 621 607 637T587 686Z" />
<glyph unicode="&#xe5;" glyph-name="aring" horiz-adv-x="604" d="M302 557Q412 557 470 510T529 364V0H425L396 74H392Q357 30 318 10T211 -10Q138 -10 90 32T42 163Q42 250 103 291T286 337L381 340V364Q381 407 359 427T296 447Q256 447 218 436T142 407L93
508Q137 531 190 544T302 557ZM323 251Q251 249 223 225T195 162Q195 128 215 114T267 99Q315 99 348 127T381 208V253L323 251ZM300 605Q246 605 213 636T179 721Q179 775 212 806T300 837Q352 837 388 806T424 722Q424 667 389 636T300 605ZM300 674Q320 674
333 686T347 721Q347 743 334 755T300 768Q280 768 267 756T253 721Q253 699 265 687T300 674Z" />
<glyph unicode="&#xe6;" glyph-name="ae" horiz-adv-x="917" d="M641 556Q710 556 762 527T844 443T874 308V236H521Q523 173 558 137T657 101Q753 101 843 144V29Q802 9 758 0T649 -10Q582 -10 527 15T437 91Q408 56 379 34T311 1T216 -10Q169 -10 130 8T66 65T42
163Q42 250 101 291T278 337L371 340V381Q371 415 350 431T290 447Q251 447 215 437T141 409L93 508Q136 531 189 544T299 557Q409 557 466 493Q498 525 540 540T641 556ZM638 450Q589 450 559 422T524 335H734Q733 385 709 417T638 450ZM316 251Q248 249 222 225T195
162Q195 128 213 114T263 99Q309 99 340 127T371 208V253L316 251Z" />
<glyph unicode="&#xe7;" glyph-name="ccedilla" horiz-adv-x="514" d="M300 -10Q178 -10 112 57T45 270Q45 370 79 433T173 526T313 556Q369 556 410 545T483 519L439 404Q404 418 374 427T313 436Q197 436 197 271Q197 189 227 150T313 111Q360 111 396 123T466
158V31Q432 9 395 0T300 -10ZM407 -122Q407 -178 375 -209T256 -240Q234 -240 217 -237T185 -230V-148Q199 -152 219 -155T255 -158Q269 -158 279 -152T290 -128Q290 -110 272 -96T209 -75L247 0H341L328 -30Q358 -40 382 -62T407 -122Z" />
<glyph unicode="&#xe8;" glyph-name="egrave" horiz-adv-x="591" d="M303 556Q416 556 482 492T548 308V236H196Q198 173 233 137T332 101Q385 101 428 111T517 144V29Q477 9 433 0T325 -10Q243 -10 180 20T81 113T45 269Q45 365 77 428T168 524T303 556ZM304
450Q261 450 233 422T199 335H408Q407 385 382 417T304 450ZM282 766Q297 744 317 717T359 664T397 619V606H298Q279 619 254 638T202 680T152 722T115 756V766H282Z" />
<glyph unicode="&#xe9;" glyph-name="eacute" horiz-adv-x="591" d="M303 556Q416 556 482 492T548 308V236H196Q198 173 233 137T332 101Q385 101 428 111T517 144V29Q477 9 433 0T325 -10Q243 -10 180 20T81 113T45 269Q45 365 77 428T168 524T303 556ZM304
450Q261 450 233 422T199 335H408Q407 385 382 417T304 450ZM507 756Q493 742 470 722T421 680T369 639T324 606H225V619Q241 638 262 663T305 716T340 766H507V756Z" />
<glyph unicode="&#xea;" glyph-name="ecircumflex" horiz-adv-x="591" d="M303 556Q416 556 482 492T548 308V236H196Q198 173 233 137T332 101Q385 101 428 111T517 144V29Q477 9 433 0T325 -10Q243 -10 180 20T81 113T45 269Q45 365 77 428T168 524T303 556ZM304
450Q261 450 233 422T199 335H408Q407 385 382 417T304 450ZM383 766Q397 744 419 717T466 663T508 619V606H409Q383 622 352 643T295 692Q269 665 239 644T183 606H84V619Q103 638 126 663T172 716T209 766H383Z" />
<glyph unicode="&#xeb;" glyph-name="edieresis" horiz-adv-x="591" d="M303 556Q416 556 482 492T548 308V236H196Q198 173 233 137T332 101Q385 101 428 111T517 144V29Q477 9 433 0T325 -10Q243 -10 180 20T81 113T45 269Q45 365 77 428T168 524T303 556ZM304
450Q261 450 233 422T199 335H408Q407 385 382 417T304 450ZM384 686Q384 721 404 736T452 752Q480 752 500 737T521 686Q521 653 501 637T452 621Q424 621 404 637T384 686ZM581 686Q581 721 601 736T650 752Q678 752 698 737T719 686Q719 653 699 637T650 621Q621
621 601 637T581 686Z" />
<glyph unicode="&#xec;" glyph-name="igrave" horiz-adv-x="305" d="M227 0H78V546H227V0ZM395 766Q410 744 430 717T472 664T510 619V606H411Q392 619 367 638T315 680T265 722T228 756V766H395Z" />
<glyph unicode="&#xed;" glyph-name="iacute" horiz-adv-x="305" d="M227 0H78V546H227V0ZM364 756Q350 742 327 722T278 680T226 639T181 606H82V619Q98 638 119 663T162 716T197 766H364V756Z" />
<glyph unicode="&#xee;" glyph-name="icircumflex" horiz-adv-x="305" d="M227 0H78V546H227V0ZM496 766Q510 744 532 717T579 663T621 619V606H522Q496 622 465 643T408 692Q382 665 352 644T296 606H197V619Q216 638 239 663T285 716T322 766H496Z" />
<glyph unicode="&#xef;" glyph-name="idieresis" horiz-adv-x="305" d="M227 0H78V546H227V0ZM-15 686Q-15 721 5 736T53 752Q81 752 101 737T122 686Q122 653 102 637T53 621Q25 621 5 637T-15 686ZM182 686Q182 721 202 736T251 752Q279 752 299 737T320 686Q320
653 300 637T251 621Q222 621 202 637T182 686Z" />
<glyph unicode="&#xf0;" glyph-name="eth" horiz-adv-x="619" d="M224 765Q259 749 290 732T350 696L460 764L509 689L426 638Q499 571 536 485T574 280Q574 141 502 66T308 -10Q232 -10 173 19T79 104T45 239Q45 318 75 373T158 457T280 486Q380 486 414 438L418
440Q402 480 379 512T324 575L212 506L163 582L249 634Q232 645 214 656T175 679L224 765ZM310 376Q249 376 223 342T197 238Q197 177 223 139T310 100Q370 100 396 140T422 260Q422 306 395 341T310 376Z" />
<glyph unicode="&#xf1;" glyph-name="ntilde" horiz-adv-x="657" d="M388 556Q476 556 529 509T582 356V0H433V319Q433 378 412 407T345 437Q277 437 252 391T227 257V0H78V546H192L212 476H220Q246 518 291 537T388 556ZM127 605Q133 683 170 719T260 756Q287
756 312 743T362 718T410 705Q425 705 439 718T459 757H532Q526 680 488 643T399 606Q373 606 348 618T298 644T249 657Q234 657 220 644T200 605H127Z" />
<glyph unicode="&#xf2;" glyph-name="ograve" horiz-adv-x="619" d="M574 274Q574 138 503 64T308 -10Q232 -10 173 23T79 119T45 274Q45 410 116 483T311 556Q388 556 447 523T540 428T574 274ZM197 274Q197 193 223 152T310 110Q369 110 395 151T422 274Q422
355 396 395T309 436Q250 436 224 396T197 274ZM296 766Q311 744 331 717T373 664T411 619V606H312Q293 619 268 638T216 680T166 722T129 756V766H296Z" />
<glyph unicode="&#xf3;" glyph-name="oacute" horiz-adv-x="619" d="M574 274Q574 138 503 64T308 -10Q232 -10 173 23T79 119T45 274Q45 410 116 483T311 556Q388 556 447 523T540 428T574 274ZM197 274Q197 193 223 152T310 110Q369 110 395 151T422 274Q422
355 396 395T309 436Q250 436 224 396T197 274ZM521 756Q507 742 484 722T435 680T383 639T338 606H239V619Q255 638 276 663T319 716T354 766H521V756Z" />
<glyph unicode="&#xf4;" glyph-name="ocircumflex" horiz-adv-x="619" d="M574 274Q574 138 503 64T308 -10Q232 -10 173 23T79 119T45 274Q45 410 116 483T311 556Q388 556 447 523T540 428T574 274ZM197 274Q197 193 223 152T310 110Q369 110 395 151T422 274Q422
355 396 395T309 436Q250 436 224 396T197 274ZM397 766Q411 744 433 717T480 663T522 619V606H423Q397 622 366 643T309 692Q283 665 253 644T197 606H98V619Q117 638 140 663T186 716T223 766H397Z" />
<glyph unicode="&#xf5;" glyph-name="otilde" horiz-adv-x="619" d="M574 274Q574 138 503 64T308 -10Q232 -10 173 23T79 119T45 274Q45 410 116 483T311 556Q388 556 447 523T540 428T574 274ZM197 274Q197 193 223 152T310 110Q369 110 395 151T422 274Q422
355 396 395T309 436Q250 436 224 396T197 274ZM108 605Q114 683 151 719T241 756Q268 756 293 743T343 718T391 705Q406 705 420 718T440 757H513Q507 680 469 643T380 606Q354 606 329 618T279 644T230 657Q215 657 201 644T181 605H108Z" />
<glyph unicode="&#xf6;" glyph-name="odieresis" horiz-adv-x="619" d="M574 274Q574 138 503 64T308 -10Q232 -10 173 23T79 119T45 274Q45 410 116 483T311 556Q388 556 447 523T540 428T574 274ZM197 274Q197 193 223 152T310 110Q369 110 395 151T422 274Q422
355 396 395T309 436Q250 436 224 396T197 274ZM142 686Q142 721 162 736T210 752Q238 752 258 737T279 686Q279 653 259 637T210 621Q182 621 162 637T142 686ZM339 686Q339 721 359 736T408 752Q436 752 456 737T477 686Q477 653 457 637T408 621Q379 621 359
637T339 686Z" />
<glyph unicode="&#xf7;" glyph-name="divide" horiz-adv-x="572" d="M285 449Q257 449 237 466T217 523Q217 564 237 580T285 597Q312 597 332 581T353 523Q353 484 333 467T285 449ZM43 299V406H528V299H43ZM285 108Q257 108 237 125T217 182Q217 223 237 239T285
256Q312 256 332 240T353 182Q353 143 333 126T285 108Z" />
<glyph unicode="&#xf8;" glyph-name="oslash" horiz-adv-x="619" d="M574 274Q574 138 503 64T308 -10Q277 -10 249 -4T194 12L161 -37L86 14L119 63Q84 100 65 152T45 274Q45 410 116 483T311 556Q376 556 432 531L459 571L533 518L505 477Q538 441 556 390T574
274ZM197 274Q197 226 206 193L361 425Q339 436 309 436Q250 436 224 396T197 274ZM422 274Q422 313 416 343L265 117Q283 110 310 110Q369 110 395 151T422 274Z" />
<glyph unicode="&#xf9;" glyph-name="ugrave" horiz-adv-x="657" d="M579 546V0H465L445 70H437Q411 28 366 9T269 -10Q181 -10 128 37T75 190V546H224V227Q224 169 245 139T312 109Q380 109 405 155T430 289V546H579ZM315 766Q330 744 350 717T392 664T430 619V606H331Q312
619 287 638T235 680T185 722T148 756V766H315Z" />
<glyph unicode="&#xfa;" glyph-name="uacute" horiz-adv-x="657" d="M579 546V0H465L445 70H437Q411 28 366 9T269 -10Q181 -10 128 37T75 190V546H224V227Q224 169 245 139T312 109Q380 109 405 155T430 289V546H579ZM540 756Q526 742 503 722T454 680T402 639T357
606H258V619Q274 638 295 663T338 716T373 766H540V756Z" />
<glyph unicode="&#xfb;" glyph-name="ucircumflex" horiz-adv-x="657" d="M579 546V0H465L445 70H437Q411 28 366 9T269 -10Q181 -10 128 37T75 190V546H224V227Q224 169 245 139T312 109Q380 109 405 155T430 289V546H579ZM416 766Q430 744 452 717T499 663T541
619V606H442Q416 622 385 643T328 692Q302 665 272 644T216 606H117V619Q136 638 159 663T205 716T242 766H416Z" />
<glyph unicode="&#xfc;" glyph-name="udieresis" horiz-adv-x="657" d="M579 546V0H465L445 70H437Q411 28 366 9T269 -10Q181 -10 128 37T75 190V546H224V227Q224 169 245 139T312 109Q380 109 405 155T430 289V546H579ZM161 686Q161 721 181 736T229 752Q257
752 277 737T298 686Q298 653 278 637T229 621Q201 621 181 637T161 686ZM358 686Q358 721 378 736T427 752Q455 752 475 737T496 686Q496 653 476 637T427 621Q398 621 378 637T358 686Z" />
<glyph unicode="&#xfd;" glyph-name="yacute" horiz-adv-x="569" d="M0 546H163L266 239Q274 217 278 194T284 144H287Q290 170 295 193T308 239L409 546H569L338 -70Q307 -155 248 -197T110 -240Q85 -240 67 -238T34 -232V-114Q45 -116 60 -118T93 -120Q140 -120
167 -92T208 -23L217 4L0 546ZM496 756Q482 742 459 722T410 680T358 639T313 606H214V619Q230 638 251 663T294 716T329 766H496V756Z" />
<glyph unicode="&#xfe;" glyph-name="thorn" horiz-adv-x="633" d="M588 274Q588 135 531 63T382 -10Q323 -10 286 9T227 57H220Q223 42 225 20T227 -19V-240H78V760H227V569Q227 545 225 518T220 475H227Q248 509 286 532T382 556Q474 556 531 485T588 274ZM436
276Q436 437 334 437Q276 437 253 401T227 291V275Q227 196 250 154T336 111Q387 111 411 153T436 276Z" />
<glyph unicode="&#xff;" glyph-name="ydieresis" horiz-adv-x="569" d="M0 546H163L266 239Q274 217 278 194T284 144H287Q290 170 295 193T308 239L409 546H569L338 -70Q307 -155 248 -197T110 -240Q85 -240 67 -238T34 -232V-114Q45 -116 60 -118T93 -120Q140
-120 167 -92T208 -23L217 4L0 546ZM373 686Q373 721 393 736T441 752Q469 752 489 737T510 686Q510 653 490 637T441 621Q413 621 393 637T373 686ZM570 686Q570 721 590 736T639 752Q667 752 687 737T708 686Q708 653 688 637T639 621Q610 621 590 637T570 686Z"
/>
<glyph unicode="&#x2013;" glyph-name="endash" horiz-adv-x="500" d="M40 213V325H460V213H40Z" />
<glyph unicode="&#x2014;" glyph-name="emdash" horiz-adv-x="1000" d="M40 213V325H960V213H40Z" />
<glyph unicode="&#x2018;" glyph-name="quoteleft" horiz-adv-x="217" d="M12 480Q26 533 49 596T98 714H205Q191 655 178 588T156 469H19L12 480Z" />
<glyph unicode="&#x2019;" glyph-name="quoteright" horiz-adv-x="217" d="M205 703Q192 650 168 587T119 469H12Q26 528 40 595T61 714H198L205 703Z" />
<glyph unicode="&#x201a;" glyph-name="quotesinglbase" horiz-adv-x="285" d="M224 105Q211 52 187 -11T138 -129H31Q45 -70 59 -3T80 116H217L224 105Z" />
<glyph unicode="&#x201c;" glyph-name="quotedblleft" horiz-adv-x="445" d="M433 714Q419 655 406 588T384 469H247L240 480Q254 533 277 596T326 714H433ZM205 714Q191 655 178 588T156 469H19L12 480Q26 533 49 596T98 714H205Z" />
<glyph unicode="&#x201d;" glyph-name="quotedblright" horiz-adv-x="445" d="M433 703Q420 650 396 587T347 469H240Q254 528 268 595T289 714H426L433 703ZM205 703Q192 650 168 587T119 469H12Q26 528 40 595T61 714H198L205 703Z" />
<glyph unicode="&#x201e;" glyph-name="quotedblbase" horiz-adv-x="513" d="M452 105Q439 52 415 -11T366 -129H259Q273 -70 287 -3T308 116H445L452 105ZM224 105Q211 52 187 -11T138 -129H31Q45 -70 59 -3T80 116H217L224 105Z" />
<glyph unicode="&#x2022;" glyph-name="bullet" horiz-adv-x="376" d="M48 365Q48 449 88 484T188 520Q227 520 258 505T309 455T328 365Q328 283 287 247T188 210Q129 210 89 246T48 365Z" />
<glyph unicode="&#x2039;" glyph-name="guilsinglleft" horiz-adv-x="368" d="M40 280L221 502L328 444L192 274L328 104L221 46L40 267V280Z" />
<glyph unicode="&#x203a;" glyph-name="guilsinglright" horiz-adv-x="368" d="M147 502L328 280V267L147 46L40 104L176 274L40 444L147 502Z" />
</font>
</defs>
</svg>
